Tell Me :  Talk
Talk about your favorite band. 

Previous page Next page First page IORR home

For information about how to use this forum please check out forum help and policies.

Goto Page: PreviousFirst...345678910111213Next
Current Page: 11 of 13
Re: 'The Studio Albums Vinyl Collection 1971-2016' - 15 June 2018
Posted by: thecitadel ()
Date: June 19, 2018 11:34

the download of Bridges to Babylon is missing half the tracks...

Re: 'The Studio Albums Vinyl Collection 1971-2016' - 15 June 2018
Posted by: Irix ()
Date: June 19, 2018 11:50

Quote
Irix

The Box was damaged although it has foam-corners?

"Just received mine from Amazon. Everything looks good, except the top left rear of the box is pushed in and has a seam split, despite being impeccably packed. It even had foam bumpers on all the corners. The box it came in was intact, and is from Universal because it has the Stones tongue and logo on the box. Can't blame Amazon or UPS, it had to be damaged when it was packed before being shipped. I guess I'll contact the label and see if they will entertain sending a replacement outer box." - [Forums.SteveHoffman.tv] .

Re: 'The Studio Albums Vinyl Collection 1971-2016' - 15 June 2018
Posted by: UrbanSteel ()
Date: June 19, 2018 11:54

X



Edited 1 time(s). Last edit at 2018-06-28 11:14 by UrbanSteel.

Re: 'The Studio Albums Vinyl Collection 1971-2016' - 15 June 2018
Posted by: Irix ()
Date: June 19, 2018 11:55

Quote
thecitadel

the download of Bridges to Babylon is missing half the tracks...

Yep: [iorr.org] and someone at [Forums.SteveHoffman.tv] says that 'Back of My Hand' from A Bigger Bang is missing too.

Re: 'The Studio Albums Vinyl Collection 1971-2016' - 15 June 2018
Posted by: ab ()
Date: June 19, 2018 23:59

I just received an email from Pop market.com telling me that I will be receiving a download card in the mail. Preemptive yippee!

Re: 'The Studio Albums Vinyl Collection 1971-2016' - 15 June 2018
Posted by: jackflash27 ()
Date: June 20, 2018 17:10

Just received the box and it's fabulous. Very, very nice artwork and quality. Listened to SF, EOMS and GHS. They sound really good (although the first 2 not very different from my 2009 CD's, maybe a little warmer and less harsh, but not significantly. On moonlight mile I noticed an irritating hiss sound in the left speaker in the last 2 minutes, like I have blown the speaker (which isn't the case). I'm wondering if other people noticed this, or that this is a pressing issue and only happening on my copy.

GHS sounds much better than the 2009 CD IMO. Really clean and nice sound. I cannot compare it to the original LP, but I can imagine sound quality is equal.

On Steve Hoffman forum, people reported about the strange mix of Mixed emotions (spinning smiley sticking its tongue out and it's true: there is an organ in the mix that shouldn't be there. A little annoying, but not a showstopper. Furthermore, all LP's are put in regular white inner sleeves and the original (often hard paper) inner sleeves are also included separately.

Very happy with this box!

Re: 'The Studio Albums Vinyl Collection 1971-2016' - 15 June 2018
Posted by: UrbanSteel ()
Date: June 20, 2018 21:03

X



Edited 1 time(s). Last edit at 2018-06-28 11:22 by UrbanSteel.

Re: 'The Studio Albums Vinyl Collection 1971-2016' - 15 June 2018
Posted by: philrock90 ()
Date: June 20, 2018 21:36

I hope next they do the live albums from got live to shine a light don't need to include the vaults or SSS or Havana moon etc

Re: 'The Studio Albums Vinyl Collection 1971-2016' - 15 June 2018
Posted by: GJV ()
Date: June 20, 2018 22:03

My first box was send only in the box from the label/fabric, ofcourse it's not strange that it was damaged. The second box I ordered was also in an extra shipping box send to me and that one is in mint condition. Great!

Re: 'The Studio Albums Vinyl Collection 1971-2016' - 15 June 2018
Posted by: UrbanSteel ()
Date: June 20, 2018 22:24

X



Edited 1 time(s). Last edit at 2018-06-28 11:21 by UrbanSteel.

Re: 'The Studio Albums Vinyl Collection 1971-2016' - 15 June 2018
Posted by: TeddyB1018 ()
Date: June 21, 2018 22:44

Has anyone determined definitively if the downloads are the 2009 masters or derived from the new work?

Re: 'The Studio Albums Vinyl Collection 1971-2016' - 15 June 2018
Posted by: rogerriffin ()
Date: June 22, 2018 00:54

a nice and decent unboxing video:

[www.youtube.com]

Re: 'The Studio Albums Vinyl Collection 1971-2016' - 15 June 2018
Posted by: ironbelly ()
Date: June 22, 2018 01:00

Quote
TeddyB1018
Has anyone determined definitively if the downloads are the 2009 masters or derived from the new work?
Judging the numbers I got from Dynamic Range Meter for GHS and TY for downloads and data from Loudness Wars data base they are surprisingly similar. But I need to recheck from original discs. I do not have UM remasters in hand right now.

Re: 'The Studio Albums Vinyl Collection 1971-2016' - 15 June 2018
Posted by: TeddyB1018 ()
Date: June 22, 2018 02:20

Quote
ironbelly
Quote
TeddyB1018
Has anyone determined definitively if the downloads are the 2009 masters or derived from the new work?
Judging the numbers I got from Dynamic Range Meter for GHS and TY for downloads and data from Loudness Wars data base they are surprisingly similar. But I need to recheck from original discs. I do not have UM remasters in hand right now.

It seems that the download for Voodoo Lounge includes Mean Disposition, which is not on the new vinyl. That would suggest the downloads are the 2009’s?

Re: 'The Studio Albums Vinyl Collection 1971-2016' - 15 June 2018
Posted by: kowalski ()
Date: June 22, 2018 03:00

Quote
TeddyB1018
Quote
ironbelly
Quote
TeddyB1018
Has anyone determined definitively if the downloads are the 2009 masters or derived from the new work?
Judging the numbers I got from Dynamic Range Meter for GHS and TY for downloads and data from Loudness Wars data base they are surprisingly similar. But I need to recheck from original discs. I do not have UM remasters in hand right now.

It seems that the download for Voodoo Lounge includes Mean Disposition, which is not on the new vinyl. That would suggest the downloads are the 2009’s?

The downloads look very similar to (if not the same as) the 2009 remixes/remasters. Except for Blue and Lonesome which is the 2016 HD download. The tracks are not tagged and are sorted alphabetically in each album folder.

Also Goats Head Soup, IORR, Some Girls, Emotional Rescue, Tattoo You, Dirty Work and Voodoo Lounge are in 24 bits / 44.1kHz (while other albums are in 16 bits, ie CD resolution). On EOMS only Loving Cup is in 24 bits... Go figure...



Edited 1 time(s). Last edit at 2018-06-22 03:33 by kowalski.

Re: 'The Studio Albums Vinyl Collection 1971-2016' - 15 June 2018
Posted by: Irix ()
Date: June 22, 2018 12:30

Quote
jackflash27

So still not clear If limited to 5000?

No, not anymore:


[www.YouTube.com]



[www.YouTube.com]


[www.YouTube.com]


By the way: the highest posted Number of 'Their Satanic Majesties Request - 50th Anniversary Edition' was #17538 - [iorr.org] .

So it would be interesting what's the highest Number of 'The Studio Albums Vinyl Collection 1971-2016' then ....



Edited 2 time(s). Last edit at 2018-07-25 15:25 by Irix.

Re: 'The Studio Albums Vinyl Collection 1971-2016' - 15 June 2018
Posted by: Deltics ()
Date: June 22, 2018 12:33

Quote
kowalski
Quote
TeddyB1018
Quote
ironbelly
Quote
TeddyB1018
Has anyone determined definitively if the downloads are the 2009 masters or derived from the new work?
Judging the numbers I got from Dynamic Range Meter for GHS and TY for downloads and data from Loudness Wars data base they are surprisingly similar. But I need to recheck from original discs. I do not have UM remasters in hand right now.

It seems that the download for Voodoo Lounge includes Mean Disposition, which is not on the new vinyl. That would suggest the downloads are the 2009’s?

The downloads look very similar to (if not the same as) the 2009 remixes/remasters. Except for Blue and Lonesome which is the 2016 HD download. The tracks are not tagged and are sorted alphabetically in each album folder.

Also Goats Head Soup, IORR, Some Girls, Emotional Rescue, Tattoo You, Dirty Work and Voodoo Lounge are in 24 bits / 44.1kHz (while other albums are in 16 bits, ie CD resolution). On EOMS only Loving Cup is in 24 bits... Go figure...

The download card says "PLEASE NOTE THE LATEST STEREO REMASTERS HAVE BEEN SUPPLIED FOR THIS DOWNLOAD CARD."


"As we say in England, it can get a bit trainspottery"

Re: 'The Studio Albums Vinyl Collection 1971-2016' - 15 June 2018
Posted by: Irix ()
Date: June 22, 2018 12:46

Quote
Deltics

The download card says "PLEASE NOTE THE LATEST STEREO REMASTERS HAVE BEEN SUPPLIED FOR THIS DOWNLOAD CARD."

Yes, see Pos. 24:26 - [www.YouTube.com] .

But 'Latest Stereo Remasters' could mean 2009 or 2018. It's not clear if the Download-files have been remastered too ....

Re: 'The Studio Albums Vinyl Collection 1971-2016' - 15 June 2018
Posted by: GeorgV ()
Date: June 22, 2018 12:59

Mine is 11000 something. Don't remember exact number.

Re: 'The Studio Albums Vinyl Collection 1971-2016' - 15 June 2018
Posted by: ironbelly ()
Date: June 22, 2018 13:03

A brief comparison
Sticky Fingers 2009 remaster (CD Made in Argentina, actually it does not matter as it is the same all over the world)
DR Peak RMS Duration Track
--------------------------------------------------------------------------------
DR6 -0.01 dB -7.66 dB 3:49 01-Brown Sugar
DR5 -0.01 dB -6.34 dB 3:53 02-Sway
DR6 -0.11 dB -9.54 dB 5:44 03-Wild Horses
DR6 -0.11 dB -7.82 dB 7:16 04-Can't You Hear Me Knocking
DR10 -0.61 dB -12.88 dB 2:34 05-You Gotta Move
DR6 -0.11 dB -7.43 dB 3:38 06-Bitch
DR6 -0.01 dB -9.16 dB 3:55 07-I Got The Blues
DR7 -0.11 dB -10.13 dB 5:35 08-Sister Morphine
DR6 -0.11 dB -7.83 dB 4:05 09-Dead Flowers
DR6 -0.11 dB -8.98 dB 5:57 10-Moonlight Mile
Official DR value: DR6

Sticky Fingers (digital download from the LP box). I add tags to the tracks manually to put them in the proper order
DR Peak RMS Duration Track
--------------------------------------------------------------------------------
DR6 -0.01 dB -7.66 dB 3:49 ?-01 - Brown Sugar
DR5 -0.01 dB -6.34 dB 3:53 ?-02 - Sway
DR6 -0.11 dB -9.50 dB 5:42 ?-03 - Wild Horses
DR6 -0.11 dB -7.82 dB 7:16 ?-04 - Can't You Hear Me Knocking
DR10 -0.61 dB -12.79 dB 2:32 ?-05 - You Gotta Move
DR6 -0.11 dB -7.43 dB 3:37 ?-06 - Bitch
DR6 -0.01 dB -9.10 dB 3:54 ?-07 - I Got The Blues
DR7 -0.11 dB -10.09 dB 5:32 ?-08 - Sister Morphine
DR6 -0.11 dB -7.83 dB 4:05 ?-09 - Dead Flowers
DR6 -0.11 dB -8.98 dB 5:57 ?-10 - Moonlight Mile
Official DR value: DR6

I would say - this is essentially the same mastering.



Edited 3 time(s). Last edit at 2018-06-22 13:20 by ironbelly.

Re: 'The Studio Albums Vinyl Collection 1971-2016' - 15 June 2018
Posted by: ironbelly ()
Date: June 22, 2018 13:08

Goats Head Soup 2009 remaster (CD Made in Argentina). This is version with censored Star, Star
DR Peak RMS Duration Track
--------------------------------------------------------------------------------
DR6 -0.11 dB -6.57 dB 4:52 01-Dancing With Mr D.
DR5 -0.11 dB -7.55 dB 3:58 02-100 Years Ago
DR7 -0.11 dB -8.95 dB 5:54 03-Coming Down Again
DR6 -0.11 dB -7.96 dB 3:27 04-Doo Doo Doo Doo Doo (Heartbreaker)
DR7 -0.11 dB -9.77 dB 4:32 05-Angie
DR5 -0.11 dB -6.29 dB 4:26 06-Silver Train
DR6 -0.11 dB -7.27 dB 4:12 07-Hide Your Love
DR6 -0.11 dB -8.27 dB 5:29 08-Winter
DR7 -0.31 dB -8.43 dB 5:32 09-Can You Hear The Music
DR5 -0.41 dB -6.83 dB 4:24 10-Star Star
Official DR value: DR6

Goats Head Soup (digital download from the LP box). I add tags to the tracks manually to put them in the proper order. Star Star is a 'dirty version'
DR Peak RMS Duration Track
--------------------------------------------------------------------------------
DR6 -0.60 dB -7.07 dB 4:52 ?-01 - Dancing With Mr D
DR5 -0.60 dB -8.04 dB 3:58 ?-02 - 100 Years Ago
DR7 -0.60 dB -9.44 dB 5:54 ?-03 - Coming Down Again
DR6 -0.60 dB -8.46 dB 3:27 ?-04 - Doo Doo Doo Doo Doo (Heartbreaker)
DR7 -0.60 dB -10.26 dB 4:32 ?-05 - Angie
DR5 -0.60 dB -6.78 dB 4:26 ?-06 - Silver Train
DR6 -0.60 dB -7.76 dB 4:12 ?-07 - Hide Your Love
DR6 -0.60 dB -8.76 dB 5:29 ?-08 - Winter
DR7 -0.80 dB -8.93 dB 5:32 ?-09 - Can You Hear The Music
DR5 -0.50 dB -7.34 dB 4:24 ?-10 - Star Star
Official DR value: DR6
Looks like the same mastering with level shift. Please note, that digital download is 24/44 version, not a standard CDDA



Edited 1 time(s). Last edit at 2018-06-22 13:20 by ironbelly.

Re: 'The Studio Albums Vinyl Collection 1971-2016' - 15 June 2018
Posted by: ironbelly ()
Date: June 22, 2018 13:17

Voodoo Lounge 2009 remaster (CD made in Argentina)
DR Peak RMS Duration Track
--------------------------------------------------------------------------------
DR6 -0.11 dB -7.75 dB 3:50 01-Love Is Strong
DR5 -0.11 dB -6.11 dB 3:36 02-You Got Me Rocking
DR6 -0.11 dB -7.46 dB 3:16 03-Sparks Will Fly
DR9 -1.11 dB -12.90 dB 2:25 04-The Worst
DR10 -1.03 dB -12.81 dB 2:52 05-New Faces
DR8 -0.11 dB -9.51 dB 3:42 06-Moon Is Up
DR7 -0.11 dB -9.76 dB 5:28 07-Out Of Tears
DR5 -0.11 dB -6.54 dB 4:24 08-I Go Wild
DR7 -0.11 dB -9.06 dB 4:15 09-Brand New Car
DR8 -0.11 dB -9.68 dB 4:46 10-Sweethearts Together
DR8 -0.11 dB -9.81 dB 4:28 11-Suck On The Jugular
DR7 -0.11 dB -10.09 dB 4:34 12-Blinded By Rainbows
DR7 -0.11 dB -8.96 dB 4:09 13-Baby Break It Down
DR7 -0.11 dB -12.05 dB 6:15 14-Thru And Thru
DR7 -0.11 dB -8.27 dB 4:09 15-Mean Disposition
Official DR value: DR7

Voodoo Lounge (digital download from the LP box). I add tags to the tracks manually to put them in the proper order.
DR Peak RMS Duration Track
--------------------------------------------------------------------------------
DR6 -0.60 dB -8.24 dB 3:50 ?-01 - Love Is Strong
DR5 -0.60 dB -6.60 dB 3:36 ?-02 - You Got Me Rocking
DR6 -0.60 dB -7.95 dB 3:16 ?-03 - Sparks Will Fly
DR9 -1.60 dB -13.39 dB 2:25 ?-04 - The Worst
DR10 -1.52 dB -13.30 dB 2:52 ?-05 - New Faces
DR8 -0.60 dB -10.00 dB 3:42 ?-06 - Moon Is Up
DR7 -0.60 dB -10.25 dB 5:28 ?-07 - Out Of Tears
DR5 -0.60 dB -7.03 dB 4:24 ?-08 - I Go Wild
DR7 -0.60 dB -9.55 dB 4:15 ?-09 - Brand New Car
DR8 -0.60 dB -10.17 dB 4:46 ?-10 - Sweethearts Together
DR8 -0.60 dB -10.30 dB 4:28 ?-11 - Suck On The Jugular
DR7 -0.60 dB -10.58 dB 4:34 ?-12 - Blinded By Rainbows
DR7 -0.60 dB -9.45 dB 4:09 ?-13 - Baby Break It Down
DR7 -0.60 dB -12.40 dB 6:01 ?-14 - Thru And Thru
DR7 -0.60 dB -8.76 dB 4:08 ?-15 - Mean Disposition
Official DR value: DR7
Same story as for GHS. Looks like the same mastering with level shift. Again this is 24/44 not CDDA.

Conclusion - I would say, they gave us 2009 remasters for digital download here. Although, some of those have higher bitrate and slight level shift.

Re: 'The Studio Albums Vinyl Collection 1971-2016' - 15 June 2018
Posted by: DrPete ()
Date: June 22, 2018 14:36

So has the download card shown up in any of the US releases?

Re: 'The Studio Albums Vinyl Collection 1971-2016' - 15 June 2018
Posted by: tinnitus ()
Date: June 22, 2018 17:53

I raised a ticket for these issues and had a response to say they have fixed it. I re-downloaded them and they are all there now.

Re: 'The Studio Albums Vinyl Collection 1971-2016' - 15 June 2018
Posted by: TeddyB1018 ()
Date: June 22, 2018 22:54

Thanks for the info, Ironbelly.

Re: 'The Studio Albums Vinyl Collection 1971-2016' - 15 June 2018
Posted by: Irix ()
Date: June 23, 2018 12:40

€ 319.20 now for the Vinyl-Box on French [www.Amazon.fr] .

Re: 'The Studio Albums Vinyl Collection 1971-2016' - 15 June 2018
Posted by: midnrambler ()
Date: June 23, 2018 16:51

Hmm, will the price also drop on other Amazons (German for exampe)? Because I have not ordered my box yet.

Re: 'The Studio Albums Vinyl Collection 1971-2016' - 15 June 2018
Posted by: kowalski ()
Date: June 23, 2018 18:21

Quote
Irix
€ 319.20 now for the Vinyl-Box on French [www.Amazon.fr] .

It was just for one day (Music day in France).

Re: 'The Studio Albums Vinyl Collection 1971-2016' - 15 June 2018
Posted by: SomeGuy ()
Date: June 23, 2018 19:10

Just two minor details: they forgot to include the lyric sheet of Tattoo You and the original inner sleeve for Emotional Rescue.

Re: 'The Studio Albums Vinyl Collection 1971-2016' - 15 June 2018
Posted by: Jfk19562003 ()
Date: June 23, 2018 23:09

Since the download card wasn’t included in any USA boxes, despite it saying so on the outer box, I contacted Amazon, who is issuing a $35.99 refund off my cost of the box, $179.00, bringing it down to $143.00. Not a bad price for such a nice piece.

Goto Page: PreviousFirst...345678910111213Next
Current Page: 11 of 13


Sorry, only registered users may post in this forum.

Online Users

Guests: 505
Record Number of Users: 184 on May 17, 2018 22:46
Record Number of Guests: 3948 on December 7, 2015 15:07

Previous page Next page First page IORR home