Buy/Sell/Trade :  Talk
This is the place where Stones fans can advertise anything for sale, wanted, trade or whatever, from fan to fan. Advertisements are for free.
To see the old ads go here

Previous page Next page First page IORR home

For information about how to use this forum please check out forum help and policies.

Post: The Rolling Stones 1976-06-05 Avillon De Paris (Tarantura)
Posted by: Andrea82 ()
Date: November 12, 2022 10:41

The Rolling Stones “Avillon De Paris”
Saturday June 5th 1976
Avillon De Paris (Les Abattoirs) Paris, France

The Rolling Stones;
Mick Jagger-lead vocals, harmonica, keyboards
Keith Richards-guitar, vocals
Ronnie Wood-guitar, backing vocals
Bill Wyman-bass guitar
Charlie Watts-drums, percussion
Additional musicians;
Billy Preston-keyboards, vocals
Ollie Brown-percussion, drums
Ian Stewart-piano

Disc 1;
01. Introduction / Drums
02. Honky Tonk Women
03. If You Can't Rock Me
04. Get Off Of My Cloud
05. Hand Of Fate
06. Hey Negrita
07. Ain't Too Proud To Beg
08. Fool To Cry
09. Hot Stuff
10. Angie
11. Star Star
12. You Gotta Move
13. You Can't Always Get What You Want

Disc 2;
01. Band Introduction
02. Happy
03. Tumbling Dice
04. Nothing From Nothing
05. Outta Space
06. Midnight Rambler
07. It's Only Rock 'N' Roll
08. Brown Sugar
09. Jumpin' Jack Flash
10. Street Fighting Man

Lineage: Silver CDs > XLD (secure and accurate ripper) > FLAC

[we.tl]



Edited 1 time(s). Last edit at 2022-11-12 10:42 by Andrea82.

Re: Post: The Rolling Stones 1976-06-05 Avillon De Paris (Tarantura)
Posted by: StonyRoad ()
Date: November 12, 2022 11:03

Thanks a lot Andrea, it's 'Pavillon de Paris' and not Avillon
You are excusable (excused) because the mistake comes from The label!!!



Edited 1 time(s). Last edit at 2022-11-12 11:15 by StonyRoad.

Re: Post: The Rolling Stones 1976-06-05 Avillon De Paris (Tarantura)
Posted by: okenny ()
Date: November 12, 2022 11:27

Thank you.

Re: Post: The Rolling Stones 1976-06-05 Avillon De Paris (Tarantura)
Posted by: alexander paul ()
Date: November 12, 2022 12:05

Great! Wonderful! Terrific! Thank you very much.

Of course there was a mistake in the title. But as an old librarian I have to state that one cannot change the official title description. There are rules ...

Cheers,

Alex.

Re: Post: The Rolling Stones 1976-06-05 Avillon De Paris (Tarantura)
Posted by: stonesmuziekfan ()
Date: November 12, 2022 12:19

THX

Re: Post: The Rolling Stones 1976-06-05 Avillon De Paris (Tarantura)
Posted by: davidestrada ()
Date: November 12, 2022 12:55

Thank you much

Re: Post: The Rolling Stones 1976-06-05 Avillon De Paris (Tarantura)
Posted by: crholmstrom ()
Date: November 12, 2022 12:55

thanks

Re: Post: The Rolling Stones 1976-06-05 Avillon De Paris (Tarantura)
Posted by: JMARCOU ()
Date: November 12, 2022 13:01

My first show. Thank you.

Re: Post: The Rolling Stones 1976-06-05 Avillon De Paris (Tarantura)
Posted by: StoneZP ()
Date: November 12, 2022 13:37

thumbs up

Re: Post: The Rolling Stones 1976-06-05 Avillon De Paris (Tarantura)
Posted by: jstones ()
Date: November 12, 2022 15:20

thank you very much

Re: Post: The Rolling Stones 1976-06-05 Avillon De Paris (Tarantura)
Posted by: nbutton ()
Date: November 12, 2022 16:20

Thank You

Re: Post: The Rolling Stones 1976-06-05 Avillon De Paris (Tarantura)
Posted by: rob ()
Date: November 12, 2022 22:45

spinning smiley sticking its tongue out

Re: Post: The Rolling Stones 1976-06-05 Avillon De Paris (Tarantura)
Posted by: Andrea82 ()
Date: November 12, 2022 22:46

Quote
StonyRoad
Thanks a lot Andrea, it's 'Pavillon de Paris' and not Avillon
You are excusable (excused) because the mistake comes from The label!!!

I know the real name is Pavillon ! But I leave the title as it is in the Tarantura release.

Re: Post: The Rolling Stones 1976-06-05 Avillon De Paris (Tarantura)
Posted by: Quique-stone ()
Date: November 13, 2022 01:59

Thanks a lot Andrea! smileys with beer

Re: Post: The Rolling Stones 1976-06-05 Avillon De Paris (Tarantura)
Posted by: blindman ()
Date: November 13, 2022 02:32

Thanks for sharing.
Too bad it's all blown out with brick-wall limiting.

The first part of the show up to about 7:20 into You Can't Always Get
it really looks like mp3 in the lineage.
Then after that it seems lossless.

Sorry, I'm a real Debbie Downer. lol
But I have to look.

So if there are other sources maybe they're actually better???
Anyway......

Back to my massive project.....

----------------------------------------------------------------------------------------------
DR Peak RMS Filename
----------------------------------------------------------------------------------------------

DR6 -0.00 dB -7.24 dB A 01 The Rolling Stones - Introduction - Drums.wav
DR7 -0.00 dB -7.73 dB A 02 The Rolling Stones - Honky Tonk Women.wav
DR7 -0.00 dB -7.84 dB A 03 The Rolling Stones - If You Can't Rock Me.wav
DR7 -0.00 dB -7.65 dB A 04 The Rolling Stones - Get Off Of My Cloud.wav
DR6 -0.00 dB -6.99 dB A 05 The Rolling Stones - Hand Of Fate.wav
DR6 -0.00 dB -7.09 dB A 06 The Rolling Stones - Hey Negrita.wav
DR6 -0.00 dB -7.60 dB A 07 The Rolling Stones - Ain't Too Proud To Beg.wav
DR7 -0.00 dB -8.40 dB A 08 The Rolling Stones - Fool To Cry.wav
DR6 -0.00 dB -7.46 dB A 09 The Rolling Stones - Hot Stuff.wav
DR7 -0.00 dB -8.21 dB A 10 The Rolling Stones - Angie.wav
DR7 -0.00 dB -7.65 dB A 11 The Rolling Stones - Star Star.wav
DR7 -0.00 dB -8.09 dB A 12 The Rolling Stones - You Gotta Move.wav
DR5 -0.00 dB -6.69 dB A 13 The Rolling Stones - You Can't Always Get What You Want.wav
DR4 -0.00 dB -5.71 dB B 01 The Rolling Stones - Band Introduction.wav
DR4 -0.00 dB -4.33 dB B 02 The Rolling Stones - Happy.wav
DR4 -0.00 dB -4.54 dB B 03 The Rolling Stones - Tumbling Dice.wav
DR4 -0.00 dB -4.58 dB B 04 The Rolling Stones - Nothing From Nothing.wav
DR4 -0.00 dB -4.69 dB B 05 The Rolling Stones - Outta Space.wav
DR4 -0.00 dB -4.79 dB B 06 The Rolling Stones - Midnight Rambler.wav
DR4 -0.00 dB -4.30 dB B 07 The Rolling Stones - It's Only Rock 'n' Roll.wav
DR4 -0.00 dB -4.37 dB B 08 The Rolling Stones - Brown Sugar.wav
DR4 -0.00 dB -4.22 dB B 09 The Rolling Stones - Jumpin' Jack Flash.wav
DR4 -0.00 dB -4.39 dB B 10 The Rolling Stones - Street Fighting Man.wav
----------------------------------------------------------------------------------------------

Number of files: 23
Official DR value: DR5

==============================================================================================

not blind, was blindmansbluff, is acetboy

Re: Post: The Rolling Stones 1976-06-05 Avillon De Paris (Tarantura)
Posted by: gonzalo76 ()
Date: November 13, 2022 04:11

Quote
blindman
Thanks for sharing.
Too bad it's all blown out with brick-wall limiting...

Typical Tarantura mix with very high levels [dbboots.com]

stonesvault has a lossy version of DAC-158 [dbboots.com]



Edited 1 time(s). Last edit at 2022-11-13 04:19 by gonzalo76.

Re: Post: The Rolling Stones 1976-06-05 Avillon De Paris (Tarantura)
Posted by: gonzalo76 ()
Date: November 13, 2022 04:12

Thank you very much for sharing your silvers!!!

Re: Post: The Rolling Stones 1976-06-05 Avillon De Paris (Tarantura)
Posted by: 1fatum ()
Date: November 13, 2022 10:15

Thank You

Re: Post: The Rolling Stones 1976-06-05 Avillon De Paris (Tarantura)
Posted by: CaptainAcid ()
Date: November 13, 2022 14:38

First of all, thank you Andrea for sharing your silver discs.

I have to say this, dynamic range of 4 !!!! Now, this is insane, i have no other word for someone mastering this at such a high volume, this is ear bleeding experience.

Don`t worry, i will fix this issue and some others on this mastering.

I have just one question for the experts here, is there a lossless, unremastered version of this gig? I suppose not, but i have to check before i start working on it.

Re: Post: The Rolling Stones 1976-06-05 Avillon De Paris (Tarantura)
Posted by: BlueTurns2Grey ()
Date: November 13, 2022 16:32

Quote
CaptainAcid
First of all, thank you Andrea for sharing your silver discs.

I have to say this, dynamic range of 4 !!!! Now, this is insane, i have no other word for someone mastering this at such a high volume, this is ear bleeding experience.

Don`t worry, i will fix this issue and some others on this mastering.

I have just one question for the experts here, is there a lossless, unremastered version of this gig? I suppose not, but i have to check before i start working on it.

I can send a vg+ audience tape transfer to you, which sounds a lot better than this. Of course, thanks Andrea for your upload.

Re: Post: The Rolling Stones 1976-06-05 Avillon De Paris (Tarantura)
Posted by: dcba ()
Date: November 13, 2022 16:44

Quote
BlueTurns2Grey

I can send a vg+ audience tape transfer to you, which sounds a lot better than this. Of course, thanks Andrea for your upload.

Already looking forward to the next Acid Project! thumbs up



Sorry, only registered users may post in this forum.

Online Users

Guests: 515
Record Number of Users: 206 on June 1, 2022 23:50
Record Number of Guests: 6295 on November 30, 2021 14:09

Previous page Next page First page IORR home