Previous page Next page First page IORR home

For information about how to use this forum please check out forum help and policies.

POST: Nashville 2021 Complete audio from facebook live stream
Posted by: ChrisMahavishnu ()
Date: October 10, 2021 10:17

Extracted audio only version from the facebook live stream by Jimmy W Dillard.

This recording missed the first few moments of the intro with tribute to Charlie, so I patched the intro with Joyce Mangiums stream.

Unfortunately the webstream audio was only in 64kbps/24khz so this is very lossy, but sounds better than you'd expect.

Other than a fade at the start and end, I have made no edits (nor cut it into tracks) and have not applied any eq. Share and do what you like with this recording.

Transfer expires in 7 days

Download link: [we.tl]

Re: POST: Nashville 2021 Complete audio from facebook live stream
Posted by: BlueTurns2Grey ()
Date: October 10, 2021 10:51

Thanks for sharing !

Re: POST: Nashville 2021 Complete audio from facebook live stream
Posted by: ProfessorWolf ()
Date: October 10, 2021 10:52

well that was fast thanks

Re: POST: Nashville 2021 Complete audio from facebook live stream
Posted by: kennywilson58 ()
Date: October 10, 2021 10:59

Thanks for this Nashville sounded and looked amazing great setlist and the sound check clip was also exc cheers IORR

Re: POST: Nashville 2021 Complete audio from facebook live stream
Posted by: nbutton ()
Date: October 10, 2021 11:15

Thank You

Re: POST: Nashville 2021 Complete audio from facebook live stream
Posted by: 1fatum ()
Date: October 10, 2021 12:36

Thank you

Re: POST: Nashville 2021 Complete audio from facebook live stream
Posted by: hobshobs1 ()
Date: October 10, 2021 12:51

Thanks. Appreciated.

Re: POST: Nashville 2021 Complete audio from facebook live stream
Posted by: legin ()
Date: October 10, 2021 14:03

Many thanks!thumbs up

Re: POST: Nashville 2021 Complete audio from facebook live stream
Posted by: StoneZP ()
Date: October 10, 2021 14:05

smileys with beer

Re: POST: Nashville 2021 Complete audio from facebook live stream
Posted by: stone3009 ()
Date: October 10, 2021 16:18

many thanks thumbs up

Re: POST: Nashville 2021 Complete audio from facebook live stream
Posted by: Shattered78 ()
Date: October 10, 2021 17:05

Gracias!






LC/NM



Edited 1 time(s). Last edit at 2021-10-10 19:12 by Shattered78.

Re: POST: Nashville 2021 Complete audio from facebook live stream
Posted by: gonzalo76 ()
Date: October 10, 2021 18:07

Here's Nashville tracked in WAV format.

Download link: [we.tl]

01. Intro (tribute to Charlie).wav: audio data is cut on a sector boundary.
02. Street Fighting Man.wav: audio data is cut on a sector boundary.
03. Let's Spend The Night Together.wav: audio data is cut on a sector boundary.
04. Tumbling Dice.wav: audio data is cut on a sector boundary.
05. 19th Nervous Breakdown.wav: audio data is cut on a sector boundary.
06. Troubles A' Comin.wav: audio data is cut on a sector boundary.
07. Dead Flowers.wav: audio data is cut on a sector boundary.
08. You Can't Always Get What You Want.wav: audio data is cut on a sector boundary.
09. Living In A Ghost Town.wav: audio data is cut on a sector boundary.
10. Start Me Up.wav: audio data is cut on a sector boundary.
11. Honky Tonk Women.wav: audio data is cut on a sector boundary.
12. Band introduction.wav: audio data is cut on a sector boundary.
13. Connection.wav: audio data is cut on a sector boundary.
14. Slipping Away.wav: audio data is cut on a sector boundary.
15. Miss You.wav: audio data is cut on a sector boundary.
16. Midnight Rambler.wav: audio data is cut on a sector boundary.
17. Paint It Black.wav: audio data is cut on a sector boundary.
18. Sympathy For The Devil.wav: audio data is cut on a sector boundary.
19. Jumping Jack Flash.wav: audio data is cut on a sector boundary.
20. Gimme Shelter.wav: audio data is cut on a sector boundary.
21. (I Can't Get No) Satisfaction.wav: audio data is cut on a sector boundary.

There were no sector boundary errors.


If you prefer the track markings set differently, below is the cuesheet you can edit. I assume you know how to do it.

REM GENRE Rock
REM DATE 2021
REM COMMENT "tracked by gonzalo76 with CD Wave Editor"
PERFORMER "The Rolling Stones"
TITLE "2021-10-09. Nashville, TN, Nissan Stadium (Facebook live stream by Jimmy W Dillard)"
FILE "Rolling-Stones-2021-10-09-Nashville.flac" WAVE
TRACK 01 AUDIO
TITLE "Intro (tribute to Charlie)"
INDEX 01 00:00:00
TRACK 02 AUDIO
TITLE "Street Fighting Man"
INDEX 01 01:18:04
TRACK 03 AUDIO
TITLE "Let's Spend The Night Together"
INDEX 01 05:21:56
TRACK 04 AUDIO
TITLE "Tumbling Dice"
INDEX 01 09:30:67
TRACK 05 AUDIO
TITLE "19th Nervous Breakdown"
INDEX 01 14:38:70
TRACK 06 AUDIO
TITLE "Troubles A' Comin"
INDEX 01 19:05:32
TRACK 07 AUDIO
TITLE "Dead Flowers"
INDEX 01 24:26:72
TRACK 08 AUDIO
TITLE "You Can't Always Get What You Want"
INDEX 01 29:21:32
TRACK 09 AUDIO
TITLE "Living In A Ghost Town"
INDEX 01 38:29:39
TRACK 10 AUDIO
TITLE "Start Me Up"
INDEX 01 45:20:22
TRACK 11 AUDIO
TITLE "Honky Tonk Women"
INDEX 01 49:37:36
TRACK 12 AUDIO
TITLE "Band introduction"
INDEX 01 54:45:02
TRACK 13 AUDIO
TITLE "Connection"
INDEX 01 57:37:29
TRACK 14 AUDIO
TITLE "Slipping Away"
INDEX 01 61:32:22
TRACK 15 AUDIO
TITLE "Miss You"
INDEX 01 67:34:27
TRACK 16 AUDIO
TITLE "Midnight Rambler"
INDEX 01 77:37:26
TRACK 17 AUDIO
TITLE "Paint It Black"
INDEX 01 90:23:12
TRACK 18 AUDIO
TITLE "Sympathy For The Devil"
INDEX 01 95:39:65
TRACK 19 AUDIO
TITLE "Jumping Jack Flash"
INDEX 01 103:18:36
TRACK 20 AUDIO
TITLE "Gimme Shelter"
INDEX 01 109:57:39
TRACK 21 AUDIO
TITLE "(I Can't Get No) Satisfaction"
INDEX 01 117:20:42


PS: The original source has 2 gaps at 12:39 and 12:48 (Tumbling Dice)

---



“I got nasty habits; I take tea at three.”



Edited 1 time(s). Last edit at 2021-10-10 18:08 by gonzalo76.

Re: POST: Nashville 2021 Complete audio from facebook live stream
Posted by: mariano ()
Date: October 10, 2021 18:39

smileys with beer

Re: POST: Nashville 2021 Complete audio from facebook live stream
Posted by: gagiwh ()
Date: October 10, 2021 20:00

Thanks a lot smileys with beer

[glimmerkkp.blogspot.rs]

Re: POST: Nashville 2021 Complete audio from facebook live stream
Posted by: EddieByword ()
Date: October 10, 2021 20:02

Thanks very much.............. smileys with beersmileys with beer

Re: POST: Nashville 2021 Complete audio from facebook live stream
Posted by: damerefugio ()
Date: October 10, 2021 23:18

Thank you ! ChrisMahavishnu & gonzalo76 !

Re: POST: Nashville 2021 Complete audio from facebook live stream
Posted by: stonesmuziekfan ()
Date: October 11, 2021 20:53

THX

Re: POST: Nashville 2021 Complete audio from facebook live stream
Posted by: Quique-stone ()
Date: October 12, 2021 21:05

Thank you ChrisMahavishnu and Gonzalo!

Re: POST: Nashville 2021 Complete audio from facebook live stream
Posted by: Redstone5 ()
Date: October 12, 2021 21:09

Thanks!!!

Sorry, only registered users may post in this forum.

Online Users

Guests: 291
Record Number of Users: 206 on June 1, 2022 23:50
Record Number of Guests: 6295 on November 30, 2021 14:09

Previous page Next page First page IORR home