Buy/Sell/Trade :  Talk
This is the place where Stones fans can advertise anything for sale, wanted, trade or whatever, from fan to fan. Advertisements are for free.
To see the old ads go here

Previous page Next page First page IORR home

For information about how to use this forum please check out forum help and policies.

Karl Denson's Tiny Universe @ Inglewood, CA 2022-08-17 (wav)
Posted by: Dan ()
Date: August 18, 2022 19:21

KARL DENSON'S TINY UNIVERSE @ YOUTUBE THEATER, INGLEWOOD, CA 2022-08-17 (untracked wav) [we.tl]

the rest of the show at

[ijwthstd.blogspot.com]

and lots more all the time

[ijwthstd.blogspot.com]

Re: Karl Denson's Tiny Universe @ Inglewood, CA 2022-08-17 (wav)
Posted by: Quique-stone ()
Date: August 18, 2022 19:39

Thanks for taping and sharing Dan!

Re: Karl Denson's Tiny Universe @ Inglewood, CA 2022-08-17 (wav)
Posted by: gonzalo76 ()
Date: August 18, 2022 21:19

The sound quality is fantastic!
Thank you very much for taping and sharing Dan! thumbs up

Re: Karl Denson's Tiny Universe @ Inglewood, CA 2022-08-17 (wav)
Posted by: StoneZP ()
Date: August 18, 2022 23:56

thumbs up

Re: Karl Denson's Tiny Universe @ Inglewood, CA 2022-08-17 (wav)
Posted by: stonesmuziekfan ()
Date: August 19, 2022 10:45

THX

Re: Karl Denson's Tiny Universe @ Inglewood, CA 2022-08-17 (wav)
Posted by: gonzalo76 ()
Date: August 21, 2022 02:19

I did the best I could identifying the songs...

cuesheet file to play track by track, split, or burn to CDR:

[we.tl]

REM GENRE Funk
REM DATE 2022
REM COMMENT "untracked wav by Dan @ [ijwthstd.blogspot.com];
PERFORMER "Karl Denson's Tiny Universe"
TITLE "2022-08-17 YouTube Theater, Inglewood, CA, USA"
FILE "Karl Denson's Tiny Universe 2022-08-17 YouTube Theater.wav" WAVE
TRACK 01 AUDIO
TITLE "I'm Your Biggest Fan"
INDEX 01 00:00:00
TRACK 02 AUDIO
TITLE "Shake It Out"
INDEX 01 04:16:25
TRACK 03 AUDIO
TITLE "Music 4 Gong Gong"
INDEX 01 08:47:20
TRACK 04 AUDIO
TITLE "unknown"
INDEX 01 17:56:22
TRACK 05 AUDIO
TITLE "What If You Knew"
INDEX 01 23:59:28
TRACK 06 AUDIO
TITLE "Brother's Keeper"
INDEX 01 29:02:62
TRACK 07 AUDIO
TITLE "Satisfied"
INDEX 01 36:10:04




Thank you very much Dan for taping and sharing!!! winking smiley

Re: Karl Denson's Tiny Universe @ Inglewood, CA 2022-08-17 (wav)
Posted by: Quique-stone ()
Date: August 21, 2022 02:28

Thank you Gonzalo! thumbs up

Re: Karl Denson's Tiny Universe @ Inglewood, CA 2022-08-17 (wav)
Posted by: StoneZP ()
Date: August 21, 2022 15:52

Quote
Quique-stone
Thank you Gonzalo! thumbs up
X2



Sorry, only registered users may post in this forum.

Online Users

Guests: 274
Record Number of Users: 206 on June 1, 2022 23:50
Record Number of Guests: 6295 on November 30, 2021 14:09

Previous page Next page First page IORR home