Buy/Sell/Trade :  Talk
This is the place where Stones fans can advertise anything for sale, wanted, trade or whatever, from fan to fan. Advertisements are for free.
To see the old ads go here

Previous page Next page First page IORR home

For information about how to use this forum please check out forum help and policies.

Goto Page: 12Next
Current Page: 1 of 2
Brussels Affair '73 [2017 Remix & Remaster from HiRes Vinyl]
Posted by: kevinkamphuis ()
Date: February 3, 2017 23:41

Sampler from the Brussels Affair '73
taken from HiRes Vinyl & carefully remixed & remastered.

Amazing clearity. Guitars are loud & clear!

*For a quick listen take the soundcloud link. For best soudquality download the FLAC file from WeTransfer

[soundcloud.com]

[wetransfer.com]

Re: Brussels Affair '73 [2017 Remix & Remaster from HiRes Vinyl]
Posted by: HEILOOBAAS ()
Date: February 3, 2017 23:55

Are you going to upload the whole show? I'm afraid if I listen to just a snippet I'll be wanting to hear the whole thing. And since my birthday is this coming Tuesday, it would be so chuffy to wake up well into my twilight years to a transfer of the whole kebab!!!


Re: Brussels Affair '73 [2017 Remix & Remaster from HiRes Vinyl]
Posted by: kevinkamphuis ()
Date: February 4, 2017 09:16

Quote
HEILOOBAAS
Are you going to upload the whole show? I'm afraid if I listen to just a snippet I'll be wanting to hear the whole thing. And since my birthday is this coming Tuesday, it would be so chuffy to wake up well into my twilight years to a transfer of the whole kebab!!!

Yes I'll upload the whole show next week. Make a mailrequest for download details.

Re: Brussels Affair '73 [2017 Remix & Remaster from HiRes Vinyl]
Posted by: 5strings ()
Date: February 4, 2017 11:42

Guitars are more loud and clear, yes thanks for this.smileys with beer

Re: Brussels Affair '73 [2017 Remix & Remaster from HiRes Vinyl]
Posted by: edwinholland ()
Date: February 4, 2017 12:04

I like it. thanks

Re: Brussels Affair '73 [2017 Remix & Remaster from HiRes Vinyl]
Posted by: kevinkamphuis ()
Date: February 11, 2017 17:53

Brussels '73 [HiRes Vinyl] Remixed & Remastered 2017

[we.tl]


foobar2000 1.3.14 / Dynamic Range Meter 1.1.1
log date: 2017-02-11 16:24:51

--------------------------------------------------------------------------------
Analyzed: Rolling Stones / Brussels Affair '73
--------------------------------------------------------------------------------

DR Peak RMS Duration Track
--------------------------------------------------------------------------------
DR11 0.00 dB -13.16 dB 3:56 01-Brown Sugar
DR11 -0.18 dB -13.24 dB 5:26 02-Gimme Shelter
DR11 -0.25 dB -12.74 dB 3:20 03-Happy
DR11 -0.13 dB -13.18 dB 4:50 04-Tumblin' Dice
DR11 -0.05 dB -12.70 dB 4:31 [email protected]#$%&
DR11 -0.18 dB -12.99 dB 4:35 06-Dancing With Mr. D
DR11 -0.08 dB -13.18 dB 5:03 07-Heartbreaker
DR12 -0.66 dB -15.20 dB 5:01 08-Angie
DR11 -0.06 dB -13.78 dB 11:06 09-You Can't Always Get What You Want
DR12 -0.15 dB -13.66 dB 13:02 10-Midnight Rambler
DR11 -0.17 dB -12.64 dB 3:14 11-Honkey Tonk Women
DR10 -0.17 dB -12.66 dB 4:21 12-All Down The Line
DR11 -0.15 dB -12.67 dB 2:25 13-Rip This Joint
DR11 -0.20 dB -11.96 dB 3:27 14-Jumping Jack Flash
DR11 -0.43 dB -12.77 dB 5:14 15-Street Fighting Man
--------------------------------------------------------------------------------

Number of tracks: 15
Official DR value: DR11

Samplerate: 48000 Hz
Channels: 2
Bits per sample: 24
Bitrate: 1835 kbps
Codec: FLAC
================================================================================

Re: Brussels Affair '73 [2017 Remix & Remaster from HiRes Vinyl]
Posted by: ikikmanuel4 ()
Date: February 11, 2017 18:21

Thanks for this one '# kevinkamphuis', this sounds F...... great.

Re: Brussels Affair '73 [2017 Remix & Remaster from HiRes Vinyl]
Posted by: mariano ()
Date: February 11, 2017 19:27

Greatest !!!!!!!!

Re: Brussels Affair '73 [2017 Remix & Remaster from HiRes Vinyl]
Posted by: Quique-stone ()
Date: February 11, 2017 20:02

Wow! Many thanks kevinkamphuis! smileys with beer

Re: Brussels Affair '73 [2017 Remix & Remaster from HiRes Vinyl]
Posted by: 5strings ()
Date: February 11, 2017 20:30

Thank you , great thanks !!!!!!

Re: Brussels Affair '73 [2017 Remix & Remaster from HiRes Vinyl]
Posted by: stonesmuziekfan ()
Date: February 11, 2017 20:49

Thanks

Re: Brussels Affair '73 [2017 Remix & Remaster from HiRes Vinyl]
Posted by: edwinholland ()
Date: February 11, 2017 20:52

THANK YOU.

Re: Brussels Affair '73 [2017 Remix & Remaster from HiRes Vinyl]
Posted by: 5strings ()
Date: February 11, 2017 22:36

I think it's one of the best bootleg i ever heard and i got more than 2 thousands, can you tell me where i can get it ?
i don't find any info about it !
the sound is awesome for this period , really groovy .

Re: Brussels Affair '73 [2017 Remix & Remaster from HiRes Vinyl]
Posted by: Andrea82 ()
Date: February 12, 2017 01:01

Thanks!
This one come from a label?

Re: Brussels Affair '73 [2017 Remix & Remaster from HiRes Vinyl]
Posted by: stonesman87 ()
Date: February 12, 2017 05:00

Hey, really cool, top work, thanks. I always thought it was a shame that it didn't or couldn't make it to the "From The Vault" DVD catalogue which mostly followed the "Officially Authorized" audio releases. In this audio quality, this partly makes up for it, maybe more than just that.

Is there any artwork?

Re: Brussels Affair '73 [2017 Remix & Remaster from HiRes Vinyl]
Posted by: rovalle ()
Date: February 12, 2017 07:20

Mucho grass...

 
Date: February 12, 2017 12:32

 



Edited 1 time(s). Last edit at 2017-03-11 20:15 by blueswithafeeling.

Re: Brussels Affair '73 [2017 Remix & Remaster from HiRes Vinyl]
Posted by: EddieByword ()
Date: February 12, 2017 12:56

Quote
kevinkamphuis
Brussels '73 [HiRes Vinyl] Remixed & Remastered 2017

[we.tl]


foobar2000 1.3.14 / Dynamic Range Meter 1.1.1
log date: 2017-02-11 16:24:51

--------------------------------------------------------------------------------
Analyzed: Rolling Stones / Brussels Affair '73
--------------------------------------------------------------------------------

DR Peak RMS Duration Track
--------------------------------------------------------------------------------
DR11 0.00 dB -13.16 dB 3:56 01-Brown Sugar
DR11 -0.18 dB -13.24 dB 5:26 02-Gimme Shelter
DR11 -0.25 dB -12.74 dB 3:20 03-Happy
DR11 -0.13 dB -13.18 dB 4:50 04-Tumblin' Dice
DR11 -0.05 dB -12.70 dB 4:31 [email protected]#$%&
DR11 -0.18 dB -12.99 dB 4:35 06-Dancing With Mr. D
DR11 -0.08 dB -13.18 dB 5:03 07-Heartbreaker
DR12 -0.66 dB -15.20 dB 5:01 08-Angie
DR11 -0.06 dB -13.78 dB 11:06 09-You Can't Always Get What You Want
DR12 -0.15 dB -13.66 dB 13:02 10-Midnight Rambler
DR11 -0.17 dB -12.64 dB 3:14 11-Honkey Tonk Women
DR10 -0.17 dB -12.66 dB 4:21 12-All Down The Line
DR11 -0.15 dB -12.67 dB 2:25 13-Rip This Joint
DR11 -0.20 dB -11.96 dB 3:27 14-Jumping Jack Flash
DR11 -0.43 dB -12.77 dB 5:14 15-Street Fighting Man
--------------------------------------------------------------------------------

Number of tracks: 15
Official DR value: DR11

Samplerate: 48000 Hz
Channels: 2
Bits per sample: 24
Bitrate: 1835 kbps
Codec: FLAC
================================================================================

Hi Kevin, thanks of course for uploading this but i'm wondering if you could also upload as 16 bit as I can't burn it to disc. I've tried converting it myself using 'wavosaur' but I just get 15 tracks with no music.........ok, hopefully that'll be ok, thanks

Re: Brussels Affair '73 [2017 Remix & Remaster from HiRes Vinyl]
Posted by: kevinkamphuis ()
Date: February 12, 2017 13:09

Quote
blueswithafeeling
Quote
Andrea82
Thanks!
This one come from a label?

Official release: [www.amazon.com]

The source is a flat transfer from this vinyl (24/96Khz). Then I remixed every track with tools like ADX Trax Pro, iZotope & Audition so that MT and KR are much more audible.

Last step I resampled them to 24/48Khz) because there wasn't any info above 48Khz. Makes me think the master which was used for this vinyl pressing was also 24/48Khz).

Re: Brussels Affair '73 [2017 Remix & Remaster from HiRes Vinyl]
Posted by: edwinholland ()
Date: February 12, 2017 15:17

I have used lplex and it works for me.

Re: Brussels Affair '73 [2017 Remix & Remaster from HiRes Vinyl]
Posted by: EddieByword ()
Date: February 12, 2017 17:45

Quote
edwinholland
I have used lplex and it works for me.

Hi Edwin, do you mean you've converted to 16 bit?.....if that's right, is there any chance you could upload it here........I've tried every which way and only get 2 seconds of stattic...........confused smiley

Re: Brussels Affair '73 [2017 Remix & Remaster from HiRes Vinyl]
Posted by: kevinkamphuis ()
Date: February 12, 2017 17:49

Quote
EddieByword
Quote
edwinholland
I have used lplex and it works for me.

Hi Edwin, do you mean you've converted to 16 bit?.....if that's right, is there any chance you could upload it here........I've tried every which way and only get 2 seconds of stattic...........confused smiley

There are a dozen of tools which can convert 24 bit to 16/44.1 redbook format.

Re: Brussels Affair '73 [2017 Remix & Remaster from HiRes Vinyl]
Posted by: EddieByword ()
Date: February 12, 2017 18:03

Quote
kevinkamphuis
Quote
EddieByword
Quote
edwinholland
I have used lplex and it works for me.

Hi Edwin, do you mean you've converted to 16 bit?.....if that's right, is there any chance you could upload it here........I've tried every which way and only get 2 seconds of stattic...........confused smiley

There are a dozen of tools which can convert 24 bit to 16/44.1 redbook format.

I've tried wavosaur which usually works but I'm loathe to download others I don't know about on the off chance because so many contain added malware etc......

Re: Brussels Affair '73 [2017 Remix & Remaster from HiRes Vinyl]
Posted by: edwinholland ()
Date: February 12, 2017 19:00

I use lplex so I can put it on dvd, and dvd audio extractor so I can put it on cdr.

When it's ok I will send a link from wetransfer for the audio in wav.

Re: Brussels Affair '73 [2017 Remix & Remaster from HiRes Vinyl]
Posted by: j.b.goode ()
Date: February 12, 2017 19:03

thnx for the upload, kevin!

as you say, there are a dozen of tools which can convert 24 bit to 16/44.1 redbook format.
here'is how to convert the hi-res (hr) file to 16/44.100 with foobar2000

1. download and install
foobar2000
encoder pack
resampler-v dsp plugin

2. drag the hr files to foobar2000 main window

3. configure file conversion:
* select all music files
* right-click and select "convert" > "..."
- output format:
* format: flac, level 5 (default)
* output bit depth: 16
* dither: always
- destination:
* output folder: ask me later.
* output type: convert each track to an individual file,
* name format: /%artist%/%album%/%filename%
- processing:
add "resampler (sox)" to active dsp list,
configure resampler for xxx00 "target samplerate" (your choice here: 44100)
- other: when finished: "replaygain-scan output files as albums" and "transfer metadata (tags)".

optionally
select "transfer attached pictures" if the files have embedded artwork.
if you have a cover art jpg in the folder, put *.jpg in the box labelled "copy other files..."
* save this configuration as "hr to 16/xx" preset; so you can easily use it again
- press "convert"; be sure to specify an output folder different from where the original files are located

ps:
as artwork you can choose the original artwork,
added with this 9experimental) logo


Re: Brussels Affair '73 [2017 Remix & Remaster from HiRes Vinyl]
Posted by: EddieByword ()
Date: February 12, 2017 20:07

Quote
edwinholland
I use lplex so I can put it on dvd, and dvd audio extractor so I can put it on cdr.

When it's ok I will send a link from wetransfer for the audio in wav.

Cheers Edwin ....much appreciated, thanks, I'll keep a look out.......smileys with beer .......thanks also to JB Goode ..although as that looked so complicted plus warnings about things I have no idea about on the first link, I'll wait for Edwin's upload, thanks anyway....



Edited 1 time(s). Last edit at 2017-02-12 20:12 by EddieByword.

Re: Brussels Affair '73 [2017 Remix & Remaster from HiRes Vinyl]
Posted by: edwinholland ()
Date: February 12, 2017 21:17

[we.tl]

19 februari 2017

This is the cd by foobar2000 like j.b. goode has explain.

Re: Brussels Affair '73 [2017 Remix & Remaster from HiRes Vinyl]
Posted by: j.b.goode ()
Date: February 12, 2017 21:24

for those who prefer flac:
Brussels Affair '73 [2017 Remix & Remaster from HiRes Vinyl]-16.44100


et maintenant keith richards va chanter pour vous......

Re: Brussels Affair '73 [2017 Remix & Remaster from HiRes Vinyl]
Posted by: Paul Kersey ()
Date: February 12, 2017 21:32

Sounds great Kevin, thanks! thumbs up

Re: Brussels Affair '73 [2017 Remix & Remaster from HiRes Vinyl]
Posted by: EddieByword ()
Date: February 12, 2017 22:16

Cheers lads, thanks very much, downloaded and burnt to disc........great stuff.......smileys with beersmileys with beer

Goto Page: 12Next
Current Page: 1 of 2


Sorry, only registered users may post in this forum.

Online Users

Guests: 459
Record Number of Users: 161 on September 12, 2017 22:55
Record Number of Guests: 3948 on December 7, 2015 15:07

Previous page Next page First page IORR home