Previous page Next page First page IORR home

For information about how to use this forum please check out forum help and policies.

Partial Show 2015-07-11 Ralph Wilson Stadium, Buffalo, Ny on Zomb
Posted by: Keessie ()
Date: July 14, 2015 18:07

[zombtracker.the-zomb.com]

The Rolling Stones Read Below!
2015-07-11
Ralph Wilson Stadium
Buffalo, Ny

Panasonic DMCZS8>PC>YOU
Master copy Jbarrowsrn

Jumpin' Jack Flash
It's Only Rock 'n' Roll
You Got Me Rocking
Tumbling Dice
Out of Control
Wild Horses
Can't You Hear Me Knocking
Let's Spend the Night Together
(by request)
Honky Tonk Women
(followed by band introductions)
Before They Make Me Run
Happy
Midnight Rambler

Below are Missing

Miss You (cut to hell)
Gimme Shelter
Start Me Up
Sympathy for the Devil
Brown Sugar
Encore:
You Can't Always Get What You Want
(with The Calvary Episcopal Church Choir)
Satisfaction

My 3rd Stones show of the tour and the best.
Buffalo is a party town, I must say!!
Remember if you ever go there that no
bags allowed bigger than your hand.
Hundreds and maybe a thousand people
walking back to cars to leave bags.
You can take a larger bag if it a
clear bag though. Anyway, they seemed
full of energy on this last US show of
the tour. My story is this was my 6th
concert in 9 days including the Grateful Dead
shows so I @#$%& up in packing batteries.
1 was near dead and the other not fully
charged. The only good thing is I really
enjoyed the show after I put the camera
down so certainly worth it for me but
still wish I had the whole show on video.
Anyway, closer than my 2 previous and shot
on stage with very little from screens.
No HD because I wanted to save battery
but ran out anyway. I see no audio for
this either and hope someone was able to
record. Enjoy if you wish as it is pretty
good for 1/2 a show!


Video specs:

General
Format : MPEG-4
Format profile : QuickTime
Codec ID : qt
File size : 332 MiB
Overall bit rate mode : Variable
Overall bit rate : 9 964 Kbps
Writing library : pana

Video
ID : 1
Format : JPEG
Codec ID : jpeg
Bit rate mode : Variable
Bit rate : 9 690 Kbps
Width : 640 pixels
Height : 480 pixels
Display aspect ratio : 4:3
Frame rate mode : Constant
Frame rate : 30.000 fps
Color space : YUV
Chroma subsampling : 4:2:0
Bit depth : 8 bits
Compression mode : Lossy
Bits/(Pixel*Frame) : 1.051
Stream size : 323 MiB (97%)


Audio
ID : 2
Format : PCM
Format settings, Endianness : Big
Format settings, Sign : Signed
Codec ID : twos
Bit rate mode : Constant
Bit rate : 256 Kbps
Channel(s) : 1 channel
Sampling rate : 16.0 KHz
Bit depth : 16 bits
Stream size : 8.53 MiB (3%)

Re: Partial Show 2015-07-11 Ralph Wilson Stadium, Buffalo, Ny on Zomb
Posted by: stonesmuziekfan ()
Date: July 17, 2015 10:01

thanks

Re: Partial Show 2015-07-11 Ralph Wilson Stadium, Buffalo, Ny on Zomb
Posted by: spunky ()
Date: July 17, 2015 11:05

Also available on Electricladyland

Re: Partial Show 2015-07-11 Ralph Wilson Stadium, Buffalo, Ny on Zomb
Posted by: Quique-stone ()
Date: July 17, 2015 17:36

How about an audio extraction of this half show?

Re: Partial Show 2015-07-11 Ralph Wilson Stadium, Buffalo, Ny on Zomb
Posted by: rskinno ()
Date: July 18, 2015 00:48

Quote
Quique-stone
How about an audio extraction of this half show?

The quality is not good. I have an offer, this
Jsteve3 ::: The Rolling Stones ZIP CODE BUFFALO 14127 / With video screen Feeds
missed songs 2 & 3 with Complete Audience from ‚Intro‘ to ‚Tumbling Dice‘

[we.tl]

Sorry, only registered users may post in this forum.

Online Users

Guests: 2699
Record Number of Users: 206 on June 1, 2022 23:50
Record Number of Guests: 9627 on January 2, 2024 23:10

Previous page Next page First page IORR home